Saturday, October 22, 2011

Steinberg conducts Beethoven Symphony No. 9 "Choral"



Ludwig van Beethoven
Symphony No. 9 in D minor, Op. 125 "Choral"

Ella Lee - Soprano
Joanna Simon - Alto
Richard Kness - Tenor
Thomas Paul - Bass

William Steinberg
Pittsburgh Symphony Orchestra
Mendelssohn Choir of Pittsburgh




11 comments:

  1. http://www.fileserve.com/file/8XpGY6Z
    http://www.fileserve.com/file/EKaB5ZB
    http://www.fileserve.com/file/AW5x4RB
    http://www.fileserve.com/file/rwmeetP

    ReplyDelete
    Replies
    1. Coul you reupload it? I already have this performance but from a transfer from a worn dics. Thanks!

      Delete
  2. Hi,

    Thanks for this upload. Is it a studio or live version? Is it an LP transfer? Do YOu have any info about the recording? Gabor

    ReplyDelete
  3. Hi Gabor,
    The source is CD-R made from ReDiscovery. They don't provide details about this performance. I believe it's a LP to CD-R transfer.

    Thanks,

    ReplyDelete
  4. Hi there. Do you have a CUE file for this? There isn't one in the .RAR file.

    Thanks for posting this -- it looks great!

    --Seneschal

    ReplyDelete
  5. Hi Seneschal,

    Here it is:


    REM GENRE Symphony
    PERFORMER "William Steinberg / Pittsburgh Symphony Orchestra"
    TITLE "ReDiscovery RD 014"
    FILE "CDImage.wav" WAVE
    TRACK 01 AUDIO
    TITLE "Beethoven: Symphony No. 9 in D minor, Op. 125 'Choral' - I. Allegro ma non troppo, un poco maestoso"
    PERFORMER "William Steinberg"
    INDEX 01 00:00:00
    TRACK 02 AUDIO
    TITLE "Beethoven: Symphony No. 9 in D minor, Op. 125 'Choral' - II. Molto vivace"
    PERFORMER "William Steinberg"
    INDEX 01 15:52:55
    TRACK 03 AUDIO
    TITLE "Beethoven: Symphony No. 9 in D minor, Op. 125 'Choral' - III. Adagio molto e cantabile - Andante moderato"
    PERFORMER "William Steinberg"
    INDEX 01 27:45:17
    TRACK 04 AUDIO
    TITLE "Beethoven: Symphony No. 9 in D minor, Op. 125 'Choral' - IV. Presto - Allegro assai"
    PERFORMER "William Steinberg"
    INDEX 01 43:43:39

    ReplyDelete
  6. I have this performance from an LP transfer but the original LP must be rather used so sonics are not really convincing. I'd gladly listen to this one from an original reel. Could anyone produce a link on mediafire or RS?

    ReplyDelete
  7. I think it's from a master reel. I already have my transfer from LP but its sonics are defective. I'd be glad to have new links! I am very curious about it.

    ReplyDelete
  8. I already have Steinberg's 9th but the transfer is not really successful, could you give a living link? Many thanks!

    ReplyDelete